#TITLE:The Black Cat;
#SUBTITLE:;
#ARTIST:Turbo;
#TITLETRANSLIT:The Black Cat;
#SUBTITLETRANSLIT:;
#ARTISTTRANSLIT:Turbo;
#CREDIT:;
#BANNER:The Black Cat-bn.png;
#BACKGROUND:The Black Cat-bg.png;
#LYRICSPATH:;
#CDTITLE:pm4cd.png;
#MUSIC:The Black Cat.mp3;
#OFFSET:0.040;
#SAMPLESTART:66.701;
#SAMPLELENGTH:20.000;
#SELECTABLE:YES;
#BPMS:0.000=131.000;
#STOPS:;
#BGCHANGES:;
// cache tags:
#FIRSTBEAT:2.250;
#LASTBEAT:410.875;
#SONGFILENAME:Songs/Music V.I.P ^_^/The Black Cat/The Black Cat.sm;
#HASMUSIC:1;
#HASBANNER:1;
#MUSICLENGTH:189.805;
// end cache tags

//---------------dance-single - ----------------
#NOTES:
     dance-single:
     :
     Hard:
     20:
     1.000,1.000,1.000,0.068,1.000,1019.000,550.000,13.000,0.000,70.000:
0000
0000
0000
0000
0000
0000
0000
0000
0000
0001
0000
0001
0000
0010
0000
0100
,
0000
0100
0000
2000
0000
0000
0000
0100
0000
0000
0000
0010
0000
0000
0000
0001
,
0000
0000
0000
3200
0000
0000
0000
0001
0000
0010
0000
0010
0000
1000
0000
1000
,
0000
0001
0000
0320
0000
0000
0000
0000
0000
0100
0000
0100
0000
1000
0100
0001
,
0000
0001
0000
0032
0000
0000
0000
0000
0000
0100
0000
0100
0000
0010
0000
1000
,
0000
1000
0000
0203
0000
0000
0000
0001
0000
0000
0000
0010
0000
0000
0000
1000
,
0000
0000
0000
0311
0000
0000
0000
1100
0000
0001
0000
0101
0000
1000
0000
1010
,
0000
0010
0000
0110
0000
0000
0000
1001
0000
0000
0000
1100
0000
0010
0000
1001
,
0000
0010
0000
0101
0000
0000
0000
0110
0000
0001
0000
0010
0000
0100
0000
1000
,
0000
0100
0000
0010
0000
0000
0000
0100
0000
0000
0000
0010
0000
0000
0000
0000
,
0000
0000
0000
1111
0000
0100
0010
0101
0010
0100
0010
0101
0010
0100
0010
0101
,
0010
0100
0010
0101
0010
0100
0010
1100
0010
0100
0010
1100
0010
0100
0010
1100
,
0010
0100
0010
1100
0010
0001
0100
1001
0100
0001
0100
1001
0100
0001
0100
1001
,
0100
0001
0100
1001
0010
1000
0010
0101
0010
1000
0010
0101
0001
0011
0010
1010
,
1000
0100
0010
1101
0010
0100
1000
0101
0010
0100
1000
0101
0010
0100
1000
0101
,
0010
0100
1000
0101
1000
0001
1000
0110
0001
1000
0001
0110
1000
0001
1000
0110
,
0001
1000
0001
0110
1000
0010
0100
0011
1000
0010
0100
0011
1000
0010
0100
0011
,
1000
0010
0100
0011
0100
1000
0010
1001
0100
1000
0010
1001
1000
1100
0100
0110
,
0010
0100
1000
1110
0000
1000
0100
0011
0100
1000
0100
0011
0000
0100
0000
1010
,
0000
0000
0000
0000
0000
0000
0011
0000
1100
0000
0011
0000
1100
0000
0011
0000
1100
0000
0011
0000
1100
0000
0011
1100
0011
1100
0011
1100
0011
1100
0011
1100
,
0011
1100
0011
1100
0011
1100
0011
0000
0000
0000
0000
0000
0000
0000
0110
0000
0000
0000
0000
0000
0000
0000
1100
0000
0000
0000
0000
0000
0000
0000
1100
0000
,
0000
0110
0000
0011
0000
0000
0000
1001
0000
0000
0000
1010
0000
0000
0000
1100
,
0000
0110
0000
0011
0000
0000
0000
1010
0000
0000
0000
0101
0000
0000
0000
0011
,
0000
0110
0000
1100
0000
0000
0000
0101
0000
0000
0000
1001
0000
0000
0000
1100
,
0000
0110
0000
0011
0000
0000
0000
0110
0000
0000
0000
1001
0000
0000
0000
1100
,
0000
0110
0000
0011
0000
0000
0000
1010
0000
0000
0000
0101
0000
0000
0000
0011
,
0000
0110
0000
1100
0000
0000
0000
1001
0000
0000
0000
1010
0000
0000
0000
1100
,
0000
0110
0000
0011
0000
0000
0000
1001
0000
0000
0000
0010
0000
0000
0000
1100
,
0100
0100
0100
1111
0000
0001
0000
1010
0000
0100
0000
0011
0000
1000
0000
1001
,
0000
0010
0000
1010
0000
0010
0000
1001
0000
0100
0000
0011
0000
0010
0000
1001
,
0000
0010
0000
1100
0000
0100
0000
0101
0000
0010
0000
1010
0000
1000
0000
0110
,
0000
0001
0000
0101
0000
0100
0000
1100
0000
0010
0000
0101
0000
0001
0000
1100
,
0000
0100
0000
1001
0000
0010
0000
1100
0000
0001
0000
1001
0000
0100
0000
0011
,
0000
0010
0000
1001
0000
0100
0000
0011
0000
0100
0000
1001
0000
0010
0000
1100
,
0000
0001
0000
1010
0000
0100
0000
1001
0000
0100
0000
0011
0000
0100
0000
1010
,
0000
0001
0000
1001
0000
0010
0000
0101
0000
0100
0000
1100
0000
0010
0000
0101
,
0000
0000
0100
0000
0000
0000
0202
0000
0000
0000
0000
0000
0000
0000
0010
0000
0000
0000
1000
0000
0000
0000
0010
0000
0000
0000
1000
0000
0303
0000
1010
0101
,
1010
0101
1010
0101
1010
0101
1010
0111
0000
0000
0001
0000
0000
0000
0110
0000
0000
0000
1000
0000
0000
0000
0101
0000
0000
0000
0010
0000
0000
0000
1001
0000
,
0000
0100
0000
0011
0000
0010
0000
1010
0000
0100
0000
1010
0000
0010
0000
0011
,
0000
1000
0000
0101
0000
0010
0000
1001
0000
1000
0000
1100
0000
0010
0000
0011
,
0000
0001
0000
1010
0000
0100
0000
1001
0000
0010
0000
1100
1100
0011
0011
1100
,
0011
1100
0011
1110
0000
0001
0000
0101
0000
0010
0000
1100
0000
1000
0000
0101
,
0000
0010
0000
1001
0000
1000
0000
1100
0000
0010
0000
0101
0000
0010
0000
0011
,
0000
0001
0000
1010
0000
0010
0000
1001
0000
0100
0000
0011
0000
1000
0000
0101
,
0000
0010
0000
1100
0000
0010
0000
0101
0000
1110
0000
1110
0000
1110
0000
1110
,
0000
0000
1110
0000
0000
0000
0111
0000
0000
0000
0000
0000
0000
0000
1101
0000
0000
0000
0000
0000
0000
0000
1011
0000
0000
0000
0000
0000
0000
0000
0110
1001
,
0110
1001
0110
1001
0110
1001
1111
0000
0000
0000
1001
0000
0010
0000
1100
0000
0010
0000
0001
0000
0010
0000
1100
0000
0010
0000
0001
0000
0010
0000
1100
0000
,
0010
0001
0010
1100
0010
0001
0100
1001
0010
0001
0100
1001
0010
0001
0100
1001
,
0010
0001
0100
1001
0010
0100
0010
0101
0010
0100
0010
0101
0010
0100
0010
0101
,
0010
0100
0010
0101
0010
0100
0001
1100
0010
0100
0001
1100
0100
0101
0001
1001
,
0100
0010
0001
1011
0100
1000
0100
1010
0100
1000
0100
1010
0100
1000
0100
1010
,
0100
1000
0100
1010
0001
0010
1000
0110
0001
0010
1000
0110
0001
0010
1000
0110
,
0001
0010
1000
0110
1000
0100
0010
0101
1000
0100
0010
0101
1000
0100
0010
0101
,
1000
0100
0010
0101
0010
0001
0010
1100
0010
0001
0010
1100
1000
1001
0001
1010
,
1000
0000
0100
0000
0010
0000
0011
0000
1100
0000
0011
0000
1100
0000
0011
0000
1100
0000
0011
0000
1100
0000
0011
1100
0011
1100
0011
1100
0011
1100
0011
1100
,
0011
1100
0011
1100
0011
1100
0011
1100
0000
0000
0000
0000
0000
0000
0000
1010
0000
0000
0000
0000
0000
0000
0000
1001
0000
0000
0000
0000
0000
0000
0000
0101
,
0000
0000
0000
1010
0000
0000
0000
0101
0000
0000
0000
0000
0000
0000
0000
0011
0000
0000
0000
0000
0000
0000
0000
0110
0000
0000
0000
0000
0000
0000
0000
1100
,
0000
0000
0000
0110
0000
0000
0000
0011
0000
0000
0000
0000
0000
0000
0000
1010
0000
0000
0000
0000
0000
0000
0000
1001
0000
0000
0000
0000
0000
0000
0000
0011
,
0000
0000
0000
0110
0000
0000
0000
1100
0000
0000
0000
0000
0000
0000
0000
0101
0000
0000
0000
0000
0000
0000
0000
1010
0000
0000
0000
0000
0000
0000
0000
1001
,
0000
0000
0000
0110
0000
0000
0000
1100
0000
0000
0000
0000
0000
0000
0000
1001
0000
0000
0000
0000
0000
0000
0000
0110
0000
0000
0000
0000
0000
0000
0000
0011
,
0000
0000
0000
0110
0000
0000
0000
1100
0000
0000
0000
0000
0000
0000
0000
0101
0000
0000
0000
0000
0000
0000
0000
0110
0000
0000
0000
0000
0000
0000
0000
1001
,
0000
0000
0000
0101
0000
0000
0000
0011
0000
0000
0000
0000
0000
0000
0000
0110
0000
0000
0000
0000
0000
0000
0000
1100
0000
0000
0000
0000
0000
0000
0000
0101
,
0000
0000
0000
1010
0000
0000
0000
0101
0000
0000
0000
0000
0000
0000
0000
0110
0000
0000
0000
0000
0000
0000
0000
1000
0000
0100
0000
0010
0000
0001
0000
1010
,
0101
1010
0101
1010
0101
1010
0101
1010
0000
0000
0000
0010
0000
0000
0000
0011
0000
0000
0000
1000
0000
0000
0000
0101
0000
0000
0000
0010
0000
0000
0000
1001
,
0000
0000
0000
0010
0000
0000
0000
1100
0000
0000
0000
0100
0000
0000
0000
1001
0000
0000
0000
0010
0000
0000
0000
1100
0000
0000
0000
1000
0000
0000
0000
1001
,
0000
0000
0000
0100
0000
0000
0000
0011
0000
0000
0000
0010
0000
0000
0000
0110
0000
0000
0000
0100
0000
0000
0000
1100
0000
0000
0000
0001
0000
0000
0000
1010
,
0000
0000
0000
0100
0000
0000
0000
1001
0000
0000
0000
0010
0000
0000
0000
1100
0000
0000
0000
0010
0000
0000
0000
0101
0000
0000
0000
0010
0000
0000
0000
1001
,
0000
0000
0000
0001
0000
0000
0000
0110
0000
0000
0000
1000
0000
0000
0000
1100
0000
0000
0000
0010
0000
0000
0000
0101
0000
0000
0000
1000
0000
0000
0000
1001
,
0000
0000
0000
0100
0000
0000
0000
0011
0000
0000
0000
1000
0000
0000
0000
1100
0000
0000
0000
0010
0000
0000
0000
0101
0000
0000
0000
0001
0000
0000
0000
1001
,
0000
0000
0000
0010
0000
0000
0000
1100
0000
0000
0000
0010
0000
0000
0000
0101
0000
0000
0000
0001
0000
0000
0000
1010
0000
0000
0000
0100
0000
0000
0000
1001
,
0000
0000
0000
0100
0000
0000
0000
0011
0000
0000
0000
1000
0000
0000
0000
1001
0000
0000
0000
0010
0000
0000
0000
1100
0000
0000
0000
0000
0000
0000
0000
0011
,
0000
0000
0000
0010
0000
0000
0000
1220
0000
0000
0000
0000
0000
0000
0000
0001
0000
0000
0000
1000
0000
0000
0000
0001
0000
0000
0000
1000
0000
0330
0000
1001
,
0110
1001
0110
1001
0110
1001
0110
1111
0000
0000
0000
0100
0000
0000
0000
0011
0000
0000
0000
0010
0000
0000
0000
1010
0000
0000
0000
0100
0000
0000
0000
1001
,
0000
0000
0000
0010
0000
0000
0000
1100
0000
0000
0000
0100
0000
0000
0000
0110
0000
0000
0000
0001
0000
0000
0000
1010
0000
0000
0000
0100
0000
0000
0000
0011
,
0000
0000
0000
0010
0000
0000
0000
0101
0000
0000
0000
0010
0000
0000
0000
1001
0000
0000
0000
1000
0000
0000
0000
1100
0000
0000
0000
0010
0000
0000
0000
0101
,
0000
0000
0000
0100
0000
0000
0000
0011
0000
0000
0000
1000
0000
0000
0000
1001
0000
0000
0000
0010
0000
0000
0000
1100
0000
0010
0000
0001
0000
0010
0000
1100
,
0000
0010
0000
0001
0000
0010
0000
1101
0000
0000
0000
0001
0000
0000
0000
0011
0000
0000
0000
0100
0000
0000
0000
1010
0000
0000
0000
1000
0000
0000
0000
0101
,
0000
0000
0000
0010
0000
0000
0000
1001
0000
0000
0000
0100
0000
0000
0000
0011
0000
0000
0000
0010
0000
0000
0000
1001
0000
0000
0000
0100
0000
0000
0000
0011
,
0000
0000
0000
0001
0000
0000
0000
1010
0000
0000
0000
1000
0000
0000
0000
0110
0000
0000
0000
0001
0000
0000
0000
0011
0000
0000
0000
0010
0000
0000
0000
0101
,
0000
0000
0000
1000
0000
0000
0000
0110
0000
0000
0000
0000
0000
0000
0000
1101
0000
0000
0000
1101
0000
0000
0000
1101
0000
0000
0000
1011
0000
0000
0000
1011
,
0000
0000
0000
1011
0000
0000
0000
1111
0000
0000
0000
1001
0000
0000
0000
0110
0000
0000
0000
0101
0000
0000
0000
1010
0000
0000
0000
0011
0000
0000
0000
1100
,
0000
0000
0000
0110
0000
0000
0000
1001
0000
0000
0000
1010
0000
0000
0000
1100
0000
0000
0000
1001
0000
0000
0000
0101
0000
0000
0000
0011
0000
0000
0000
1001
,
0000
0000
0000
0110
0000
0000
0000
1001
0000
0000
0000
1100
0000
0000
0000
0101
0000
0000
0000
1010
0000
0000
0000
0101
0000
0000
0000
0011
0000
0000
0000
0110
,
0000
0000
0000
1100
0000
0000
0000
1001
0000
0000
0000
1100
0000
0000
0000
0101
0000
0000
0000
0011
0000
0000
0000
1001
0000
1010
0000
1100
0000
0110
0000
0011
,
0000
0101
0000
1001
0000
0110
0000
1011
0000
0000
0000
1100
0000
0000
0000
0011
0000
0000
0000
0110
0000
0000
0000
1101
0000
0000
0000
0011
0000
0000
0000
0110
,
0000
0000
0000
1100
0000
0000
0000
0111
0000
0000
0000
1001
0000
0000
0000
0110
0000
0000
0000
1100
0000
0000
0000
1011
0000
0000
0000
0110
0000
0000
0000
0011
,
0000
0000
0000
1100
0000
0000
0000
1110
0000
0000
0000
0101
0000
0000
0000
1010
0000
0000
0000
1001
0000
0000
0000
1011
0000
0000
0000
1001
0000
0000
0000
0101
,
0000
0000
0000
0011
0000
0000
0000
1110
0000
0000
0000
0001
0000
0000
0000
0110
0000
0000
0000
1011
0000
0000
0000
1011
0000
0000
0000
1011
0000
0000
0000
1011
,
0000
0000
0000
1101
0000
0000
0000
1101
0000
0000
0000
0000
0000
0000
0000
1110
0000
0000
0000
0000
0000
0000
0000
0111
0000
0000
0000
0000
0000
0000
0000
0101
,
1010
0101
1010
0101
1010
0101
1010
1111
0000
0000
0000
1000
0000
0100
0000
1001
0000
0100
0000
1000
0000
0100
0000
1001
0000
0100
0000
1000
0000
0100
0000
1001
,
0000
0100
0000
1000
0000
0100
0000
1001
0000
0010
0000
0100
0000
1000
0000
0101
0000
0010
0000
0100
0000
1000
0000
0101
0000
0010
0000
0100
0000
1000
0000
0101
,
0000
0010
0000
0100
0000
1000
0000
0101
0000
0010
0000
0100
0000
0010
0000
1001
0000
0010
0000
0100
0000
0010
0000
1001
0000
0010
0000
0100
0000
0010
0000
1001
,
0000
0010
0000
0100
0000
0010
0000
1001
0000
0010
0000
0001
0000
0010
0000
1100
0000
0010
0000
0001
0000
0010
0000
1100
0000
1010
0000
1001
0000
1010
0000
1100
,
0000
0011
0000
1001
0000
0110
0000
1101
0000
0010
0000
0001
0000
0010
0000
1001
0000
0010
0000
0001
0000
0010
0000
1001
0000
0010
0000
0001
0000
0010
0000
1001
,
0000
0010
0000
0001
0000
0010
0000
1001
0000
0010
0000
1000
0000
0010
0000
1100
0000
0010
0000
1000
0000
0010
0000
1100
0000
0010
0000
1000
0000
0010
0000
1100
,
0000
0010
0000
1000
0000
0010
0000
1100
0000
0001
0000
0010
0000
0100
0000
1010
0000
0001
0000
0010
0000
0100
0000
1010
0000
0001
0000
0010
0000
0100
0000
1010
,
0000
0001
0000
0010
0000
0100
0000
1010
0000
0100
0000
0010
0000
0100
0000
0011
0000
0100
0000
0010
0000
0100
0000
0011
0000
1100
0000
1010
0000
0101
0000
0011
,
0000
1100
0000
0110
0000
0101
0000
1011
0000
0000
0000
0000
0000
1000
0000
0100
0000
0010
0000
0001
0000
0010
0000
0100
0000
1000
0000
0100
0000
0010
0000
0001
,
0000
1010
0000
0000
0000
0000
0000
1100
0000
0011
0000
1100
0000
0011
0000
1100
0000
0011
0000
1100
0000
0011
0000
1100
0011
1100
0011
1100
0011
1100
0011
1100
,
0011
1100
0011
1100
0011
1100
0011
1111
0000
0000
0000
0000
0000
0000
0000
1101
0000
0000
0000
1011
0000
0000
0000
1101
0000
0000
0000
1011
0000
0000
0000
1101
,
0000
0000
0000
1011
0000
0000
0000
1101
0000
0000
0000
0000
0000
0000
0000
0111
0000
0000
0000
1110
0000
0000
0000
0111
0000
0000
0000
1110
0000
0000
0000
0111
,
0000
0000
0000
1110
0000
0000
0000
0111
0000
0000
0000
0000
0000
0000
0000
1101
0000
0000
0000
0000
0000
0000
0000
2222
0000
0000
0000
0000
0000
0000
0000
0000
,
0000
0000
0000
0000
0000
0000
0000
0000
0000
0000
0000
0000
0000
0000
0000
0000
0000
0000
0000
0000
0000
0000
0000
3333
0000
0000
0000
0000
0000
0000
0000
0000
;
